#TITLE:绝妙好戏;
#SUBTITLE:;
#ARTIST:Unknown artist;
#TITLETRANSLIT:;
#SUBTITLETRANSLIT:;
#ARTISTTRANSLIT:;
#CREDIT:;
#BANNER:4-logo.jpg;
#BACKGROUND:4.jpg;
#LYRICSPATH:;
#CDTITLE:Lan.png;
#MUSIC:4.mp3;
#OFFSET:0.000;
#SAMPLESTART:100.000;
#SAMPLELENGTH:12.000;
#SELECTABLE:YES;
#BPMS:0.000=124.600;
#STOPS:;
#BGCHANGES:;
// cache tags:
#FIRSTBEAT:0.000;
#LASTBEAT:236.000;
#SONGFILENAME:Songs/SDO 2/4/4.sm;
#HASMUSIC:1;
#HASBANNER:1;
#MUSICLENGTH:117.097;
// end cache tags

//---------------dance-single - 标准----------------
#NOTES:
     dance-single:
     标准:
     Hard:
     7:
     0.611,0.655,0.606,0.009,0.226,429.000,71.000,1.000,0.000,0.000:


1000
0001
0000
0010
0000
1000
0000
0100
,
0010
0001
0000
0010
0100
1000
0001
0010
,
0100
1000
0000
0100
0000
0010
0000
0001
,
1000
0100
0000
0010
0100
1000
0001
0010
,
1001
0000
0010
0000
1000
0000
0100
0010
0001
0000
1010
0000
0100
0000
0001
0000
,
0010
0000
1000
0000
0100
0000
1000
0100
0010
0000
0101
0000
0010
0000
0100
0000
,
1001
0000
0010
0000
0100
0000
0010
1000
0100
0000
0011
0000
1000
0000
0100
0000
,
1001
0000
0010
0000
0100
0000
0100
0010
0001
0000
0010
0100
1000
0010
0100
0001
,
1010
0000
0000
0000
0101
0000
0000
0010
1000
0000
0100
0000
0001
0000
0010
0000
,
1010
0000
0100
0000
0011
0000
0000
0100
0010
0000
0001
0000
1000
0000
0100
0000
,
1010
0000
0000
0000
0101
0000
0000
0010
0001
0000
0100
0000
0010
0000
1000
0000
,
0011
0000
0100
0000
1010
0000
0000
0010
0001
0000
0100
0000
0010
0000
0100
0000
,
1001
0000
0000
0000
0101
0000
0000
0010
1000
0000
0100
0000
0001
0000
0010
0000
,
1001
0000
0010
0000
1100
0000
0000
0100
0010
0000
0001
0000
0010
0000
1000
0000
,
0101
0000
0000
0000
1010
0000
0000
0100
0010
0000
1000
0000
0100
0000
0001
0000
,
0110
0000
0101
0000
1010
0000
0100
0010
0100
0000
0010
0000
0100
1000
0010
0001
,
1100
0000
0001
0000
0100
0000
0010
0100
1000
0000
0101
0000
0010
0000
0100
0000
,
1000
0000
0001
0000
0010
0000
0100
1000
0010
0000
0001
0000
0110
0000
0010
0000
,
1000
0000
0100
0000
0001
0000
0010
0100
0001
0000
1010
0000
0100
0000
0010
0000
,
0001
0000
0100
0000
0010
0000
1000
0100
0001
0000
0000
0000
0011
0000
1000
0000
,
0100
0000
0001
0000
0010
0000
0100
0010
0001
0000
1010
0000
0100
0000
0001
0000
,
1000
0000
0010
0000
0001
0000
0010
0100
1000
0000
0010
0000
0101
0000
0010
0000
,
1000
0000
0000
0000
0100
0000
1000
0010
0001
0000
1010
0000
0100
0000
0010
0000
,
1000
0000
0001
0000
0100
0000
0010
0001
1000
0000
0100
0000
0011
0000
0100
0000
,
1010
0100
1001
0010
0000
0000
0101
0010
,
1000
0100
1001
0010
0000
0000
0100
0000
,
0010
1000
0101
0010
0000
0000
1010
0100
,
1000
0010
0101
1000
0000
0000
0010
0000
,
1000
0100
0101
0010
0000
0000
1010
0100
,
0010
0001
1010
0100
0000
0000
1000
0000
,
0100
0001
1010
0100
0000
0000
1001
0010
,
1000
0100
0101
0010
0000
0000
0100
0000
,
1001
0010
0000
0000
,
0010
1000
0100
0000
0000
0000
0000
0000
,
0100
0001
0000
0000
,
0010
0100
0001
0000
0000
0000
0000
0000
,
1001
0110
0000
0001
,
1000
0100
0011
0000
0000
0000
0010
0000
,
1001
0101
0000
0010
,
1000
0000
0010
0000
0100
0000
1000
0100
0010
0000
0001
0100
0010
0100
1000
0100
,
0011
0000
0100
0000
1000
0000
0100
0010
0001
0000
1010
0000
0100
0000
0010
0000
,
0001
0000
1000
0000
0100
0000
0100
0010
0001
0000
1000
0000
0110
0000
0001
0100
,
0000
0010
0000
0000
1000
0000
0100
0010
0001
0000
1010
0000
0100
0000
0100
0000
,
0010
0000
1000
0000
0001
0000
0100
0010
0001
0000
1000
0000
0100
0000
0010
0000
,
1001
0000
0010
0000
0100
0000
0001
0010
1000
0000
0101
0000
0010
0000
0100
0000
,
1000
0000
0001
0000
0010
0000
0100
0010
0001
0000
1000
0000
0100
0000
0001
0000
,
0010
0000
1000
0000
0100
0000
0001
0010
1000
0000
0101
0000
0010
0000
1000
0000
,
0100
0000
0011
0000
0100
0000
1000
0010
0100
0000
0011
0000
1000
0010
0100
0001
,
1010
0000
0100
0000
0010
0000
1000
0100
0001
0000
1010
0000
0100
0000
0001
0000
,
1000
0000
0010
0000
0100
0000
0010
0001
1000
0000
0100
0000
1010
0000
0100
0000
,
0001
0000
0010
0000
0100
0000
0010
1000
0001
0000
0101
0000
0010
0000
1000
0000
,
0100
0000
0001
0000
0010
0000
0100
1000
0001
0000
0010
0000
0101
0000
0010
0000
,
1100
0000
0010
0000
1000
0000
0001
0010
0100
0000
0011
0000
1000
0000
0100
0000
,
0001
0000
0010
0000
0100
0000
0010
0100
0001
0000
1000
0000
0101
0000
0010
0000
,
0001
0000
0010
0000
1000
0000
0100
0010
0001
0000
1010
0000
0100
0000
0001
0000
,
1000
0000
0101
0000
0010
0000
0100
0001
0010
0000
1000
0010
0100
0001
0010
0100
,
1010
0000
0000
0010
0000
1000
0000
0000
,
0100
0000
0000
0010
0000
0000
0001
0000
0000
0000
0000
0000
0000
0000
1000
0000
,
0000
2000
0000
0000
0000
0000
0000
0000
,
3000
0000
0000
0000
;
